<?xml version="1.0" standalone="no"?>
<!DOCTYPE svg PUBLIC "-//W3C//DTD SVG 1.1//EN" "http://www.w3.org/Graphics/SVG/1.1/DTD/svg11.dtd" >
<svg xmlns="http://www.w3.org/2000/svg">
<metadata>Generated by IcoMoon</metadata>
<defs>
<font id="adobe-stock-icons" horiz-adv-x="1024">
<font-face units-per-em="1024" ascent="768" descent="-256" />
<missing-glyph horiz-adv-x="1024" />
<glyph unicode="&#x20;" d="" horiz-adv-x="0" />
<glyph unicode="&#xe600;" d="M917.35-85.35c-8.499 17.101-354.15 699.75-354.15 699.75s-25.6 51.2-51.2 51.2c-25.6 0-51.2-51.2-51.2-51.2s-345.651-691.2-354.15-708.25c-8.55-17.101-8.55-59.75 42.65-59.75s725.402 0 725.402 0c51.2 0 51.2 51.2 42.65 68.25zM512-78.49c-33.894 0-61.44 27.546-61.44 61.44s27.546 61.44 61.44 61.44c33.894 0 61.44-27.546 61.44-61.44s-27.546-61.44-61.44-61.44zM570.88 358.4c0-76.8-14.592-222.515-19.302-243.302 0-2.099-1.536-12.698-8.55-12.698h-62.054c-4.71 0-7.731 9.933-8.909 12.698-2.304 19.405-18.944 166.502-18.944 243.302v70.554c0 2.765 7.885 7.014 13.722 9.114 14.080 4.864 25.856 4.557 43.52 4.557 23.552 0 33.024-1.075 45.978-4.557 5.888-2.099 14.541-7.014 14.541-9.114v-70.554z" />
<glyph unicode="&#xe601;" d="M752.998 394.598c-9.984 9.984-23.091 15.002-36.198 15.002s-26.214-5.018-36.198-15.002l-168.602-168.653-168.602 168.653c-9.984 9.984-23.091 15.002-36.198 15.002s-26.214-5.018-36.198-15.002c-19.968-20.019-19.968-52.429 0-72.397l204.8-204.8c10.035-9.984 23.091-15.002 36.198-15.002s26.214 5.018 36.198 15.002l204.8 204.8c19.968 19.968 19.968 52.378 0 72.397z" />
<glyph unicode="&#xe602;" d="M481.946 256l168.653 168.602c9.984 9.984 15.002 23.091 15.002 36.198s-5.018 26.214-15.002 36.198c-20.019 19.968-52.429 19.968-72.397 0l-204.8-204.8c-9.984-10.035-15.002-23.091-15.002-36.198s5.018-26.214 15.002-36.198l204.8-204.8c19.968-19.968 52.378-19.968 72.397 0 9.984 9.984 15.002 23.091 15.002 36.198s-5.018 26.214-15.002 36.198l-168.653 168.602z" />
<glyph unicode="&#xe603;" d="M650.598 292.198l-204.8 204.8c-19.968 19.968-52.378 19.968-72.397 0-9.984-9.984-15.002-23.091-15.002-36.198s5.018-26.214 15.002-36.198l168.653-168.602-168.653-168.602c-9.984-9.984-15.002-23.091-15.002-36.198s5.018-26.214 15.002-36.198c20.019-19.968 52.429-19.968 72.397 0l204.8 204.8c9.984 9.984 15.002 23.091 15.002 36.198s-5.018 26.163-15.002 36.198z" />
<glyph unicode="&#xe604;" d="M595.383 669.013c149.211-29.745 270.141-139.459 316.952-281.844-59.977 36.084-124.83 63.878-194.072 82.895-27.794 78.507-70.217 146.773-122.88 198.949v0 0zM932.328 230.644h-178.469l0.488 25.356c0 54.613-6.339 107.276-18.53 156.526 57.539-18.53 112.152-43.886 162.865-75.581 0 0 34.133-97.524 33.646-106.301v0 0zM925.501 182.857c-3.901-19.017-26.819-62.415-26.819-62.415-55.589-35.109-116.541-62.415-180.907-81.432 15.116 42.91 25.844 96.061 31.695 143.848h176.030zM880.152 51.688c-59.002-105.813-162.377-183.832-284.77-208.701 38.522 38.034 71.68 84.846 97.524 137.509 65.829 15.604 129.219 39.985 187.246 71.192v0 0zM428.617-157.013c-122.392 24.381-226.255 102.4-284.77 208.701 58.027-31.695 120.93-55.589 187.246-71.192 25.844-52.663 59.002-99.474 97.524-137.509v0 0zM98.499 182.857h176.030c5.851-47.787 16.579-100.937 31.695-143.848-64.366 19.017-125.318 46.324-180.907 81.432 0 0-22.918 43.398-26.819 62.415v0 0zM91.672 230.644c-0.488 8.777 33.646 106.301 33.646 106.301 50.712 31.695 105.326 57.051 162.865 75.581-12.19-49.25-18.53-101.912-18.53-156.526l0.488-25.356h-178.469zM111.665 387.657c46.811 142.385 167.741 251.611 316.952 281.356-52.663-52.175-95.086-120.442-122.88-198.949-69.242-19.017-134.095-46.811-194.072-82.408v0 0zM512-256c22.43 0 80.945 6.339 80.945 6.339 243.81 38.522 431.055 250.636 431.055 505.661s-187.246 466.651-431.055 505.661l-14.629 1.95c-21.455 2.926-43.886 4.389-66.316 4.389s-44.861-1.463-66.804-4.389l-14.141-1.95c-243.81-39.010-431.055-250.636-431.055-505.661s187.246-466.651 431.055-505.661c0 0 58.514-6.339 80.945-6.339v0 0zM487.619 654.872v-156.526c-41.935-1.463-85.821-7.314-125.806-15.116 29.257 69.242 74.118 129.219 125.806 171.642v0 0zM487.619 447.634v-216.015l-170.667-0.975-0.488 21.943c0 61.44 8.777 120.442 25.356 175.055 45.836 10.728 96.549 18.53 145.798 19.992v0 0zM487.619 183.832v-172.617c-41.935 1.463-85.821 5.851-125.806 14.141-19.992 45.836-28.77 105.326-35.596 158.964l161.402-0.488zM487.619-39.010v-102.888c-36.571 29.745-71.192 66.804-97.524 110.69 31.208-4.389 65.341-6.339 97.524-7.802v0 0zM534.918-142.872v102.888c32.183 1.463 67.779 4.389 98.987 8.777-26.331-43.886-62.415-81.92-98.987-111.665v0 0zM534.918 10.24v172.617h167.741c-6.827-53.638-20.48-111.665-40.472-157.501-39.985-8.29-85.333-13.653-127.269-15.116v0 0zM534.918 230.644v216.015c49.25-1.463 101.425-8.29 147.261-19.017 16.579-54.613 25.356-113.615 25.356-175.055l-0.488-21.943h-172.13zM534.918 497.371v156.526c51.688-42.91 98.011-101.425 127.269-170.667-39.985 7.802-85.333 12.678-127.269 14.141v0 0z" />
<glyph unicode="&#xe605;" d="M51.2 278.528c0-241.152 196.608-437.76 437.76-437.76 241.664 0 438.272 196.608 438.272 437.76 0 241.664-196.608 438.272-438.272 438.272-241.152 0-437.76-196.608-437.76-438.272v0zM220.16 266.24c23.552 20.48 61.44 19.968 81.408-3.584l90.112-104.448 275.456 330.752c19.456 24.064 57.344 25.6 81.408 6.144 23.552-19.968 29.184-57.344 9.728-81.408l-329.216-396.288c-19.968-24.064-52.224-24.576-72.192-1.024l-144.896 168.448c-19.968 23.552-15.36 61.44 8.192 81.408v0z" />
<glyph unicode="&#xe606;" d="M584.346 256l168.653 168.602c9.984 9.984 15.002 23.091 15.002 36.198s-5.018 26.214-15.002 36.198c-20.019 19.968-52.429 19.968-72.397 0l-168.602-168.602-168.602 168.602c-19.968 19.968-52.378 19.968-72.397 0-9.984-9.984-15.002-23.091-15.002-36.198s5.018-26.214 15.002-36.198l168.653-168.602-168.653-168.602c-9.984-9.984-15.002-23.091-15.002-36.198s5.018-26.214 15.002-36.198c20.019-19.968 52.429-19.968 72.397 0l168.602 168.602 168.602-168.602c19.968-19.968 52.378-19.968 72.397 0 9.984 9.984 15.002 23.091 15.002 36.198s-5.018 26.214-15.002 36.198l-168.653 168.602z" />
<glyph unicode="&#xe607;" d="M870.4 563.2h-716.8c0 0-51.2 0-51.2 51.2s51.2 51.2 51.2 51.2h716.8c0 0 51.2-1.587 51.2-51.2s-51.2-51.2-51.2-51.2zM870.4 256h-716.8c0 0-51.2 0.819-51.2 51.2s51.2 51.2 51.2 51.2h716.8c0 0 51.2 0 51.2-51.2s-51.2-51.2-51.2-51.2zM870.4-51.2h-716.8c0 0-51.2 0.819-51.2 51.2s51.2 51.2 51.2 51.2h716.8c0 0 51.2-0.819 51.2-51.2s-51.2-51.2-51.2-51.2z" />
<glyph unicode="&#xe608;" d="M563.2 665.6c-197.939 0-358.4-160.461-358.4-358.4 0-71.168 20.992-137.267 56.731-193.024l-187.853-187.853c-30.003-29.952-30.003-78.643 0-108.595 30.003-30.003 78.592-30.003 108.595 0l187.853 187.853c55.808-35.789 121.907-56.781 193.075-56.781 197.939 0 358.4 160.461 358.4 358.4s-160.461 358.4-358.4 358.4zM563.2 40.96c-146.791 0-266.24 119.451-266.24 266.24s119.449 266.24 266.24 266.24 266.24-119.451 266.24-266.24-119.449-266.24-266.24-266.24z" />
<glyph unicode="&#xe609;" d="M682.667 682.666c0 37.547-30.72 68.267-68.267 68.267h-204.8c-37.547 0-68.267-30.72-68.267-68.267v-136.533h341.333v136.533zM477.184 648.533c0 19.115 15.701 34.816 34.816 34.816s34.816-15.701 34.816-34.816c0-19.115-15.701-34.816-34.816-34.816s-34.816 15.701-34.816 34.816v0zM955.733 546.133c0 37.547-30.72 68.267-68.267 68.267h-136.533v-136.533h-477.867v136.533h-136.533c-37.547 0-68.267-30.72-68.267-68.267v-750.933c0-37.547 30.72-68.267 68.267-68.267h750.933c37.547 0 68.267 30.72 68.267 68.267v750.933zM387.755-23.894c-15.019 15.019-15.019 39.595 0 54.613l202.752 202.752c15.019 15.019 39.595 15.019 54.613 0s15.019-38.912 0-53.931l-203.435-203.435c-15.019-14.336-38.912-14.336-53.931 0v0zM295.595 18.432c-39.595-40.96-46.421-89.429-2.048-133.803s103.083-36.864 139.264 2.048c23.211 25.259 40.277 56.661 47.104 92.843l64.853 47.787c9.557-66.901-18.432-148.821-64.853-195.243-66.219-65.536-172.715-65.536-238.251 0-65.536 66.219-65.536 172.715 0 238.251 46.421 46.421 128.341 74.411 195.243 64.853l-47.787-65.536c-34.816-8.192-70.315-28.672-93.525-51.2v0zM479.232 177.493c-9.557 67.584 19.115 148.821 64.853 195.243 65.536 65.536 172.715 65.536 238.251 0s65.536-172.032 0-238.251c-46.421-45.739-128.341-74.411-195.243-64.853l57.344 68.267c35.499 6.827 61.44 28.672 85.333 51.883 46.421 46.421 32.085 94.208-1.365 126.976-44.373 44.373-98.304 43.008-135.168 6.144l-8.192-8.192c-19.797-23.211-30.72-51.2-37.547-81.237l-68.267-55.979z" />
<glyph unicode="&#xe60a;" d="M736 384v-448h-448v448h-64v-448c0-35.36 28.64-64 64-64h448c35.36 0 64 28.64 64 64v448h-64zM384 0v0c-17.664 0-32 14.336-32 32v288c0 17.664 14.336 32 32 32v0c17.664 0 32-14.336 32-32v-288c0-17.664-14.336-32-32-32zM512 0v0c-17.664 0-32 14.336-32 32v288c0 17.664 14.336 32 32 32v0c17.664 0 32-14.336 32-32v-288c0-17.664-14.336-32-32-32zM640 0v0c-17.664 0-32 14.336-32 32v288c0 17.664 14.336 32 32 32v0c17.664 0 32-14.336 32-32v-288c0-17.664-14.336-32-32-32zM832 512h-160c0 70.688-57.312 128-128 128h-64c-70.688 0-128-57.312-128-128h-160c-17.664 0-32-14.336-32-32s14.336-32 32-32h640c17.664 0 32 14.336 32 32s-14.336 32-32 32zM416 512v32c0 17.664 14.336 32 32 32h128c17.664 0 32-14.336 32-32v-32h-192z" />
<glyph unicode="&#xe60b;" d="M718.064 289.936l-142.064-142.061v492.125h-96v-492.125l-142.064 142.061-67.872-67.872 257.936-257.939 257.936 257.939zM256-32h544v-96h-544v96z" />
<glyph unicode="&#xe60c;" d="M864 64c17.6 0 32 14.4 32 32v448c0 17.6-14.4 32-32 32h-576c-17.6 0-32-14.4-32-32v-448c0-17.6 14.4-32 32-32h576zM320 512h512v-384h-512v384zM736-64c17.6 0 32 14.4 32 32v32h-576v448h-32c-17.6 0-32-14.4-32-32v-448c0-17.6 14.4-32 32-32h576z" />
<glyph unicode="&#xe60d;" d="M560 608c-167.894 0-304-136.106-304-304 0-64.87 20.483-124.867 55.104-174.23l-167.635-167.638c-10.314-10.304-15.469-23.818-15.469-37.331s5.155-27.027 15.469-37.331c9.622-9.622 22.029-14.755 34.621-15.398 14.4-0.736 29.040 4.397 40.042 15.398l167.635 167.635c49.363-34.621 109.363-55.104 174.234-55.104 167.894 0 304 136.106 304 304s-136.106 304-304 304zM560 96c-114.874 0-208 93.126-208 208s93.126 208 208 208 208-93.126 208-208-93.126-208-208-208z" />
<glyph unicode="&#xe60e;" d="M864 320h-46.944c-14.432 0-26.464 9.824-30.88 23.584-4.96 15.52-11.232 30.464-18.624 44.736-6.528 12.576-4.992 27.776 5.024 37.792l33.568 33.568c12.512 12.512 12.512 32.768 0 45.248l-45.248 45.248c-12.512 12.512-32.768 12.512-45.248 0l-33.568-33.568c-10.016-10.016-25.216-11.552-37.792-5.024-14.24 7.424-29.184 13.664-44.736 18.624-13.728 4.384-23.552 16.416-23.552 30.848v46.944c0 17.664-14.336 32-32 32h-64c-17.664 0-32-14.336-32-32v-46.944c0-14.432-9.824-26.464-23.584-30.88-15.52-4.96-30.464-11.2-44.736-18.624-12.576-6.528-27.776-4.992-37.792 5.024l-33.536 33.568c-12.512 12.512-32.768 12.512-45.248 0l-45.248-45.248c-12.512-12.512-12.512-32.768 0-45.248l33.568-33.568c10.016-10.016 11.552-25.216 5.024-37.792-7.424-14.24-13.664-29.216-18.624-44.736-4.416-13.728-16.448-23.552-30.88-23.552h-46.944c-17.664 0-32-14.336-32-32v-64c0-17.664 14.336-32 32-32h46.944c14.432 0 26.464-9.824 30.88-23.584 4.96-15.52 11.232-30.464 18.624-44.736 6.528-12.576 4.992-27.776-5.024-37.792l-33.568-33.568c-12.512-12.512-12.512-32.768 0-45.248l45.248-45.248c12.512-12.512 32.768-12.512 45.248 0l33.568 33.568c10.016 10.016 25.216 11.552 37.792 5.024 14.24-7.424 29.184-13.664 44.736-18.624 13.728-4.384 23.552-16.416 23.552-30.848v-46.944c0-17.664 14.336-32 32-32h64c17.664 0 32 14.336 32 32v46.944c0 14.432 9.824 26.464 23.584 30.88 15.52 4.96 30.464 11.232 44.736 18.624 12.576 6.528 27.776 4.992 37.792-5.024l33.568-33.568c12.512-12.512 32.768-12.512 45.248 0l45.248 45.248c12.512 12.512 12.512 32.768 0 45.248l-33.568 33.568c-10.016 10.016-11.552 25.216-5.024 37.792 7.424 14.24 13.664 29.184 18.624 44.736 4.384 13.728 16.416 23.552 30.848 23.552h46.944c17.664 0 32 14.336 32 32v64c0 17.664-14.336 32-32 32zM512 112c-79.52 0-144 64.48-144 144s64.48 144 144 144 144-64.48 144-144c0-79.52-64.48-144-144-144z" />
<glyph unicode="&#xe60f;" d="M367.674 122.848c-0.992 1.85-1.341 6.669-1.875 6.669l-0.026-0.026 18.227 46.509h254.8c36.214 0 69.296 17.562 87.267 51.392l121.126 257.974-74.464 34.982-120.189-256.099c-2.733-5.088-7.984-8.25-13.741-8.25h-242.278l-164.57 329.142h-107.706v-82.285h56.867l142.81-285.619-28.65-45.318c-18.563-32.544-12.749-79.955 12.992-105.75 13.606-13.606 37.955-29.626 77.597-29.626 0.938 0 1.875 0 2.838 0.026h338.973v82.285l-341.062-0.026c-3.936 0-14.355-0.266-18.938 4.019zM420.499-64c0-37.872-30.701-68.573-68.573-68.573s-68.573 30.701-68.573 68.573c0 37.872 30.701 68.573 68.573 68.573s68.573-30.701 68.573-68.573zM740.509-64c0-37.872-30.701-68.573-68.573-68.573s-68.573 30.701-68.573 68.573c0 37.872 30.701 68.573 68.573 68.573s68.573-30.701 68.573-68.573zM656 544h-96v96h-80v-96h-96v-80h96v-96h80v96h96z" />
<glyph unicode="&#xe610;" d="M271.35 271.852c23.552 20.5 61.45 19.999 81.449-3.553l90.102-104.448 275.4 330.752c19.502 24.049 57.4 25.6 81.449 6.149 23.552-20.004 29.153-57.349 9.748-81.403l-329.247-396.298c-19.953-24.049-52.25-24.602-72.151-1.050l-144.901 168.448c-19.999 23.552-15.401 61.45 8.151 81.403v0z" />
<glyph unicode="&#xe611;" d="M313.246 24.057c-1.875 0-1.875 0-1.875 1.875v0c0 1.875 0 3.752 0 5.627s0 3.752 0 5.627h-1.875c0 7.5 0 15.004 1.875 20.629s1.875 13.127 1.875 20.629v5.627c0 3.752 0 7.502 0 11.252s0 5.627-1.875 9.377c0 1.875-1.875 1.875-1.875 3.752-1.875 0-1.875 1.875-3.752 1.875-1.875 0-1.875 1.875-3.752 1.875-1.875 0-1.875 1.875-1.875 1.875 0 1.875-1.875 3.752-3.752 5.627-1.875 3.752-3.752 5.627-5.627 9.377-1.875 3.752-3.752 7.5-5.627 9.377-1.875 3.752-1.875 5.627-1.875 5.627 0 1.875 0 5.627 1.875 7.5 0 3.752 1.875 5.627 3.752 9.377 1.875 3.752 1.875 5.627 1.875 7.5 0 1.875 1.875 5.627 0 7.5 0 1.875-1.875 1.875-3.752 3.752s-3.752 3.752-7.502 5.627c-3.752 1.875-5.627 3.752-9.377 5.627-3.752 1.875-7.502 3.752-11.254 3.752-3.752 1.875-5.627 1.875-9.377 3.752-1.875 1.875-5.627 1.875-5.627 3.752 0 0-1.875 1.875-3.752 1.875s-3.747 1.875-5.622 3.75c-1.875 1.875-3.752 1.875-3.752 3.752-1.875 0-1.875 1.875-3.752 1.875s-1.875 1.875-3.752 3.752c0 1.875-1.875 1.875-1.875 3.752s-1.875 1.875-1.875 3.752c0 1.875-1.875 1.875-3.752 3.752 0 0 0 0-1.875 0s-1.875 0-1.875 0c-3.752 0-5.627 1.875-7.502 3.752s-3.752 3.752-5.627 7.502c-1.875 1.875-3.752 5.627-5.627 7.502s-3.752 5.627-5.627 7.5c-1.872 1.87-3.747 3.747-5.622 5.622s-3.752 3.752-3.752 5.627c-1.875 1.875-1.875 3.752-1.875 7.502s0 5.627 0 9.377c0 1.875 0 3.752 0 3.752s0 1.875 0 3.752 1.875 3.752 1.875 5.627 0 3.752 0 5.627c0 1.875 0 3.752-1.875 5.627 0 1.875-1.875 1.875-3.752 3.752-1.875 0-3.752 1.875-3.752 1.875-1.875 0-3.752 0-3.752 1.875 0 0-1.875 0-1.875 1.875l-3.75 3.747c0-1.875-1.875 0-1.875 0l-9.377 9.377c-3.752 1.875-7.502 1.875-11.254 3.752-3.752 1.875-5.627 1.875-9.377 3.752-3.752 1.875-5.627 1.875-7.502 1.875-7.502 0-13.127-1.875-18.756-3.752-5.63-1.875-11.254-5.627-16.879-9.377-5.627-3.752-11.252-7.502-16.879-9.377s-11.252-3.752-18.756-3.752h1.875l-1.875 1.875c0 0 0 1.875 0 5.627h18.756c0 1.875 1.875 3.752 3.752 5.627 1.875 1.875 3.752 1.875 5.627 3.752 1.875 0 3.752 1.875 7.502 3.752 1.875 1.875 3.752 3.752 3.752 5.627-3.752 0-7.502 1.875-9.377 3.752s-3.752 5.627-3.752 9.377c0 1.875 0 5.627 1.875 7.502 0 1.875 1.875 3.752 5.627 7.502l-1.875 1.875c0 0 0 0 0-1.875 0 0 0 0-1.875 0v0c-1.875 0-3.752 0-3.752 1.875s-1.875 3.752-1.875 3.752c0 1.875 0 1.875 0 3.752 0 1.875 1.875 1.875 3.752 1.875-1.875 1.875-3.752 1.875-3.752 3.752-1.875 1.875-1.875 1.875-1.875 3.752 0 1.875 1.875 3.752 3.752 5.627s5.627 3.752 7.502 3.752c1.875 0 5.627 1.875 9.377 3.752 3.752 0 5.627 1.875 7.502 1.875 3.752 0 5.627 0 7.502-1.875s5.627-1.875 7.502-1.875c0 0 1.875 0 1.875 1.875 1.875 0 1.875 1.875 1.875 1.875s0 0 1.875 0 1.875 0 3.752 0h1.875c1.875 0 1.875 0 1.875 0 0-1.875 0-3.752 3.752-3.752 1.875-1.875 5.627-1.875 7.502-1.875 3.752 0 5.627 0 7.502 0s3.752 0 5.627 0 7.502 0 11.254 1.875c1.875 1.875 5.627 1.875 5.627 3.752 1.875 1.875 3.752 3.752 3.752 7.5 1.875 1.875 1.875 5.627 3.752 9.377h1.875c1.875 0 1.875 0 3.752 0s1.875 0 3.752 0 1.875 0 1.875 0h1.875c3.752-1.875 5.627-1.875 9.377-3.752 3.752 0 5.627-1.875 9.377-1.875s5.627-1.875 9.377-1.875c1.875 0 5.627-1.875 9.377-3.752l1.875-1.875c1.875-1.875 3.752-3.752 3.752-3.752 1.875 0 1.875-1.875 1.875-1.875s0-1.875 1.875-1.875c0-1.875 0-3.752 0-7.5 3.752 0 5.627 0 9.377 1.875s3.752 3.752 3.752 7.502h-11.262c0 1.875 0 1.875-1.875 3.752s-1.875 1.87-1.875 1.87-1.875 0-1.875 1.875c0 1.875 0 1.875 0 1.875 0 1.875 0 1.875 1.875 3.752 1.875 1.875 1.875 1.875 3.752 1.875s1.875 1.875 3.752 1.875 1.875 0 3.752 1.875c0 0 0 1.875-1.875 3.752h-13.132c0 1.875 0 3.752 0 5.627s1.875 3.752 3.752 5.627c-1.875 0-1.875 0-3.752 1.875-1.875 0-1.875 1.875-3.752 1.875s-1.875 1.875-3.752 3.752-1.875 1.875-1.875 3.752c0 1.875 0 1.875 1.875 1.875s1.875 0 3.752 0c3.752 0 5.627 0 7.502-1.875s3.752-3.752 3.752-5.627c1.875-1.875 1.875-3.752 3.752-7.5 0-1.875 1.875-5.627 3.752-7.5l1.875 1.875c1.875 1.875 1.875 3.752 0 5.627 0 1.875-1.875 3.752-3.752 5.627-1.875 1.875-3.752 3.752-3.752 5.627s-1.875 3.752-1.875 5.627c0 1.875 0 1.875 1.875 1.875s1.875 0 3.752 0h1.875c0 0 1.875 0 1.875-1.875v-1.875c0 0 0-1.875-1.875-1.875l3.752-1.875c0 5.627 1.875 9.377 3.752 11.252s5.627 3.752 7.502 5.627c1.875 1.875 7.502 1.875 11.252 1.875 3.752 0 7.5 1.875 11.254 3.752h37.508l1.875-1.875 31.883-3.752c0 0 0 0 0-1.875s1.875 0 1.875 0c1.875 0 1.875 0 3.752 0l1.875 1.875c0 0 0 1.875 1.875 1.875s1.875 0 3.752 0 1.875 0 3.752 0 1.875 0 1.875-1.875 1.875 0 1.875-1.875h1.875c0 1.875-1.875 1.875-1.875 3.752 0 0 0 1.875 0 3.752v1.868c0 0 0 0 1.875-1.875 1.875 0 1.875 0 1.875 0s0 0 1.875 0 0 0 1.875 0v3.752c1.875 0 3.752 0 7.502 0 3.752 0 7.5 0 11.254 0 3.752 0 7.5 0 11.254 0 3.752 0 5.627 0 7.5 0 0 0 1.875 0 5.627 0s5.627 0 9.377-1.875c3.752 0 5.627-1.875 7.502-1.875 1.875-1.875 3.752-1.875 3.752-3.752 0 0 0 0 0-1.875l-3.752-3.752c0 0 0 0 0-1.875h18.756c0 0 0 0 1.875 0s0-1.875 0-1.875v0c0-1.875 0-3.752-1.875-3.752s-3.752-1.875-5.627-1.875c-1.875 0-3.752-1.875-5.627-3.752-1.875-1.875-1.875-3.752-1.875-5.627s0-1.875 1.875-1.875l1.875-1.875c-1.875-1.875-1.875-3.752-3.752-5.627 0-1.875-1.875-3.752-1.875-5.627s-1.875-3.752-3.752-5.627c-1.875-1.875-3.752-3.752-5.627-3.752l1.875-1.875c1.875-1.875 1.875-1.875 1.875-3.752 0-1.875 0-3.752 0-3.752h-5.625c0-1.875 0-1.875 0-3.752 0 0 0 0 1.875-1.875s1.875 0 1.875 0l1.875-1.875c0 0-1.875-1.875-5.627-3.752-3.752-1.875-7.5-3.752-11.254-5.627-3.752-1.875-7.502-3.752-11.254-5.627s-5.627-3.752-7.502-3.752l-22.504-37.51c0 0 0 0-1.875 0s-1.875 0-3.752 0c-1.875 0-5.627 0-7.5 1.875-1.875 1.875-5.627 3.752-7.502 5.627s-3.752 3.752-5.627 7.5c-1.875 1.875-1.875 5.627-1.875 7.502s0 3.752 1.875 5.627c1.875 1.875 1.875 3.752 1.875 7.5 0 1.875 0 5.627-1.875 9.377 0 3.752-1.875 5.627-3.752 9.377s-3.752 5.627-3.752 9.377-3.752 3.752-3.752 5.627c0 1.875-3.752 0-7.5 0-3.752 0-7.502 1.875-11.254 1.875-3.752 1.875-7.502 1.875-11.254 3.752-3.752 1.875-5.627 3.752-5.627 5.627s0 1.875 1.875 3.752c1.875 0 1.875 1.875 3.752 1.875s1.875 1.875 3.752 1.875c1.875 0 1.875 0 3.752 0l-1.875 1.875h-1.875c0 0-1.875 0-3.752 0s-1.875 0-3.752 0-1.875 0-1.875-1.875l-1.875-1.875c0 0-1.875-1.875-1.875-3.752s-1.875-1.875-1.875-3.752c0-1.875-1.875-1.875-3.752-1.875v0c0 0 0 1.875-1.875 1.875s0 1.875 0 3.752c0 0-1.875-1.875-1.875-3.752 0-1.875 0-1.875 0-3.752 0-1.875 0-1.875 0-3.752s0-1.875-1.875-3.752c1.875 0 3.752 0 3.752 0 0-1.875 0-1.875 0-3.752 0-1.875 0-1.875 1.875-3.752 1.875-1.875 3.752-1.875 7.502-1.875v-9.362c1.875 0 3.752 0 5.627 0s3.752 0 5.627-1.875c1.875-1.875 3.752-1.875 5.627-1.875 1.875-1.875 1.875-1.875 3.752-3.752v-5.627c0-1.875 1.875-1.875 3.752-3.752 1.875 0 3.752-1.875 5.627-1.875s3.752-1.875 5.627-1.875c1.875 0 1.875-1.875 1.875-3.752 0-1.875 0-3.752-1.875-3.752 0 0-1.875 0-3.752 0s-1.875 0-3.752 0-1.875 0-3.752 0c0-1.875 0-1.875 0-3.752l3.75-3.75c0 0 0-1.875 0-3.752 0-3.752 0-5.627-1.875-7.502s-3.752-1.875-7.5-1.875c0 0 0 0 0-1.875s0-1.875 0-1.875 0-1.875 1.875-3.752c1.875-1.875 1.875-3.752 1.875-3.752s0 0 1.875 1.875l3.75 3.75c0 0 1.875 0 1.875 1.875s0 0 0 0 1.875-1.875 3.752-3.752c1.875-1.875 3.752-5.627 5.627-7.5 1.875-3.752 5.627-7.502 9.377-13.127 0-1.875 0-3.752-1.875-3.752s-1.875 0-3.752-1.875c-1.875 0-1.875 0-3.752-1.875-1.875 0-1.875-1.875-1.875-3.752s0-1.875 1.875-3.752c0-1.875 1.875-1.875 1.875-3.752v-3.74c0 0 0-1.875-1.875-1.875-3.752 0-7.502-1.875-9.377-1.875-1.875-1.875-5.627-3.752-7.502-5.627s-3.752-3.752-5.627-7.502-3.752-5.627-5.627-7.5c0 0 0-1.875 1.875-1.875s0-1.875 0-1.875v0c0-1.875 0-1.875-1.875-3.752-1.875-1.875-3.752-3.752-5.627-3.752s-3.752-3.752-3.752-3.752c-1.875-1.875-1.875-1.875-1.875-3.752 0 0 0-1.875 1.875-1.875 1.875-1.875 1.875-1.875 1.875-1.875s0 0 0-1.875v-1.875c0-1.875 0-1.875 0-3.752s0-1.875 0-1.875v0c0-1.875 0-3.752-1.875-5.627 0-1.875-1.875-3.752-3.752-3.752-1.875 0-1.875 0-3.752 1.875-1.875 1.875-1.875 1.875-3.752 3.752 0 1.875-1.875 3.752-1.875 5.627s0 3.752 0 3.752-1.875 0-3.752 0-3.752 0-3.752 0h-11.254c-5.627 0-9.377-1.875-13.127-3.752-3.75-1.875-5.627-7.502-5.627-15.004 0 0 0-1.875 0-3.752s0-3.752 1.875-3.752c1.875 0 1.875-3.752 1.875-3.752s1.875-1.875 3.752-1.875 1.875 0 3.752 1.875c1.875 1.875 1.875 1.875 1.875 1.875l1.875 1.875c0 0 1.875 1.875 3.752 1.875 0 0 0 0 1.875 0s1.875 0 1.875 0c0-1.875 0-3.752 1.875-5.627 1.875-3.752 1.875-5.627 3.752-9.377 1.875-3.752 3.752-5.627 5.627-7.5s3.752-3.752 5.627-3.752c3.752 0 5.627 0 9.377 1.875 1.875 1.875 5.627 1.875 9.377 1.875 3.752 0 7.502 0 11.254 0s7.502-1.875 11.254-1.875c3.752-1.875 7.502-1.875 11.254-3.752 3.752-1.875 5.627-5.627 9.377-9.377 5.627 1.875 9.377 1.875 11.254 0 1.875-1.875 3.752-1.875 3.752-3.752s1.875-3.752 1.875-7.5c0-3.75 1.875-3.752 3.752-5.627 1.875-1.875 3.752-3.752 7.5-3.752 3.752-1.875 7.502-1.875 13.127-3.752 3.752-1.875 7.5-3.752 11.254-5.627 3.752-1.875 5.627-5.627 5.627-7.5 0-1.875 0-3.752-1.875-5.627 0-1.875-1.875-3.752-3.752-5.627-1.875-1.875-1.875-3.752-3.752-5.627-1.875-1.875-1.875-3.752-3.752-3.752 0-1.875 0-3.752 0-5.627s-1.875-3.752-1.875-5.627c-1.875-1.875-1.875-3.752-3.752-5.627s-1.875-3.752-1.875-3.752-1.875-1.875-3.752-3.752c-1.875 0-3.752-1.875-5.627-1.875s-3.752 0-5.627-1.875c-1.875 0-3.752-1.875-3.752-1.875 0-1.875 0-3.752-1.875-3.752v-3.75c0 0-1.875-1.875-1.875-3.752-7.5 0-9.377 0-11.254-1.875-1.875-1.875-1.875-1.875-3.752-3.752 0-1.875 0-1.875 0-3.752-1.875-1.875-5.627-3.752-7.502-5.627-3.752-3.752-5.627-7.502-9.377-11.252-3.752-3.75-5.627-7.5-9.377-11.252-1.875-3.752-3.752-7.5-5.627-9.377 0 0 0-1.875 1.875-1.875s0-1.875 0-1.875v0 0c0 0 0 0 0-1.875s0-1.875-1.875-1.875c0 0 0-1.875-1.875-1.875s0-1.875 0-1.875c0-1.875 0-1.875 0-3.752 0 0 1.875-1.875 3.752-1.875 1.875 0 1.875-1.875 3.752-1.875 0 0 1.875-1.875 1.875-3.752h-16.879c0 0-1.875 0-1.875 1.875s-1.875 1.875-1.875 1.875v3.75c0 0 0 1.875 0 3.752s0 1.875 0 3.752 0 1.875 0 1.875h-1.875l0.015 0.010zM78.821 224.725v1.875c0 0 0 1.875 1.875 1.875 0 0 1.875-1.875 3.752-1.875 1.875 0 3.752 0 3.752-1.875s3.752 0 3.752 0c1.875 0 1.875 0 3.752 0v-1.875c0-1.875 0-1.875 0-3.752s-1.875-1.875-3.752-1.875c0 0-1.875 0-3.752 0-1.875 0-3.752 0-3.752 1.875s-1.875 1.875-3.752 1.875c-1.875 1.877-1.875 1.877-1.875 3.752v0zM176.34 387.884c0-1.875 0-1.875 0 0 1.875-1.875 1.875-1.875 0 0 1.875 0 1.875 0 0 0v0zM178.217 416.018c0 1.875 1.875 1.875 3.752 3.752 1.875 1.875 1.875 1.875 3.752 1.875s1.875 0 3.752 0 3.752 0 5.627-1.875c0 0 0-1.875 0-5.627v-1.875c0-1.875 0-1.875 0-1.875h-1.88c0 0-1.875 0-3.752 0s-3.752 0-3.752 0h-5.625l-1.875 1.875v1.875c0-0.002 0-0.002 0 1.875v0zM189.469 382.26c1.875 0 1.875 0 3.752 0s1.875 0 3.752 0 1.875 1.875 1.875 1.875v0c0 0-1.875 0-1.875 1.875-1.875 0-1.875 0-1.875 0v0c0 0 0 0-1.875 0 0 0-1.875 0-1.875-1.875-1.88 0.002-1.88-1.875-1.88-1.875s-1.875 0 0 0v0zM191.344 395.386c0-1.875 0-1.875 0 0 3.752-1.875 3.752-1.875 3.752 0s0 1.875-1.875 1.875-1.877 0.002-1.877-1.875v0zM196.971 408.516c0 1.877 0 1.877 0 0 1.875 1.875 3.752 3.752 3.752 3.752l3.75 3.75h1.875c0 0 0 1.875 0 3.752 0 1.875 0 1.875 0 3.752 0 1.875 0 1.875 1.875 3.752 0 1.875 1.875 1.875 1.875 1.875 1.875 0 1.875 0 3.752-1.875s0-1.875 1.875-3.752c1.875-1.875 0-3.752 1.875-3.752 0-1.875 1.875-3.752 3.752-3.752 1.875-1.875 3.752-1.875 3.752-1.875h1.875c0 0 0 0 0-1.875s0-1.875-1.875-3.752c0-1.875-1.875-1.875-3.752-3.752v0h-7.502c0 0-1.875 0-3.752 0s-3.752 0-5.627 0c-1.875 0-3.752 0-5.627 1.875-1.872-1.872-1.872 0.002-1.872 1.877 0 1.877 0 0 0 0v0zM206.346 239.729c0 0 1.877 0 0 0 1.875-1.875 3.752-1.875 3.752 0s0 1.875-1.875 1.875c-1.877 0-1.877 0-1.877-1.875v0zM210.098 237.854c0 0 0-1.875 0 0 1.875 0 1.875 0 1.875 0s0 0-1.875 0c0 1.875 0 1.875 0 0zM211.975 416.018c-1.875 0-1.875 0 0 0 0-1.875 0-1.875 0-1.875s0-0.002 0 1.875v0zM245.731 397.261c0-1.875 0-1.875 1.875-1.875s1.875 0 1.875 1.875-1.872 1.875-3.75 0c0 1.875 0 1.875 0 0v0zM258.857 386.009c1.875-1.875 1.875-1.875 3.752-3.752 1.875-1.875 3.752-1.875 5.627-3.752 1.875-1.875 1.875-1.875 1.875-1.875v0c0 0 0 0 0 1.875s0 1.875 0 3.752l-3.75 3.75c0 0 0 1.875 0 3.752s0 1.875 0 3.752 1.875 1.875 1.875 3.752c0 0 1.875 1.875 1.875 3.752s1.875 1.875 1.875 3.752c-1.875 0-5.627 0-5.627 1.875-1.875 0-3.752 1.875-3.752 1.875-1.875 0-1.875 1.875-3.752 1.875s-1.875 1.875-3.752 1.875c0 0 0-1.875 0-3.752 0-1.875-1.875-1.875-1.875-3.752 0 0 0 0 0-1.875 0 0 0 0 1.875 0h1.875c0 0 1.875 0 3.752 0 1.875 0 1.875 0 3.752 0 1.875 0 1.875 0 1.875 0v-1.875c0 0 0 0 0-1.875s0 0 0 0 0 0-1.875-1.875c-1.875-1.875-1.875-1.875-1.875-1.875l-1.875-1.875c0 0 0 0 0-1.875-3.75-3.755-3.75-3.755-1.875-5.63v0zM249.483 380.382c0-1.875 0-1.875 0 0 1.875-1.875 3.752-1.875 3.752 0s0 1.875-1.875 1.875c-1.877 0.002-1.877 0.002-1.877-1.875v0zM251.355 427.269c0-1.875 0-1.875 0 0 1.875-1.875 3.752-1.875 3.752 0s0 1.875-1.875 1.875c-1.877 0.002-1.877-1.875-1.877-1.875v0zM253.233 425.394c0-1.875 0-1.875 1.875-1.875s1.875 0 1.875 1.875c0.002 0 0.002 1.875-3.75 0 0 1.875 0 0 0 0v0zM256.985 416.018c1.875 0 1.875-1.875 3.752-1.875 0 0 1.875 1.875 3.752 3.752 1.875 1.875 3.752 1.875 5.627 3.752 1.875 1.875 3.752 1.875 3.752 3.752 1.875 1.875 1.875 1.875 1.875 3.752-1.875 0-3.752 0-5.627-1.875-1.875 0-3.752-1.875-5.627-3.752-1.875-1.875-3.752-1.875-5.627-3.752-1.875-1.875-3.752-1.875-5.627-3.752 1.875 1.872 3.75 1.872 3.75-0.002zM258.857 440.396c0-1.875 0-1.875 1.875-1.875s1.875 0 1.875 1.875c0.002 1.877 0.002 1.877-3.75 0 1.877 1.877 0 1.877 0 0v0zM264.485 331.623c1.875-1.875 5.627-3.752 9.377-3.752 3.752-1.875 5.627-3.752 9.377-5.627s5.627-3.752 7.5-5.627c0 0 0 3.752 0 7.502s0 7.5 1.875 11.252c0 3.752 1.875 7.5 1.875 11.252s1.875 3.752 1.875 3.752h16.879c-1.875 1.875-3.752 1.875-5.627 3.752-1.875 1.875-3.752 1.875-5.627 1.875s-3.752 1.875-3.752 1.875c-1.875 0-1.875 1.875-1.875 5.627v1.875c0 0 1.875 1.875 3.752 1.875s3.752 0 3.752 0v3.752c0 0 0 1.875 0 3.752s0 1.875-1.875 1.875c-1.875 0-1.875 0-1.875 0h-16.879c0-3.752-1.875-7.5-3.752-11.252-1.875-3.752-5.627-5.627-7.5-9.377-1.875-1.875-5.627-5.627-7.5-9.377s-3.752-7.502-3.752-11.254c0.002 0 1.877-1.875 3.752-3.75v0zM260.735 414.14c0-1.875 0-1.875 1.875-1.875s1.875 0 1.875 1.875c0.002 0 0.002 0-3.75 0 1.877 0 0 0 0 0v0zM266.359 356.004c0 0 1.877 0 0 0 1.875-1.875 3.752-1.875 3.752 0s0 1.875-1.875 1.875c0 1.875-1.877 0-1.877-1.875zM275.739 412.265c0 0-1.875 0-3.752 0s-1.875 0-3.752 0c0 0-1.875 0 0 0 0 0 1.875 0 3.752 0 1.875-1.875 3.752-1.875 3.752 0v0zM271.987 434.771c0 1.875 1.875 3.752 1.875 5.627s1.875 3.752 1.875 5.627h-3.752v-11.254zM279.489 401.014l1.875-1.875c0 0 1.875 0 1.875-1.875s1.875 0 1.875 0 1.875 0 1.875 1.875c0 1.875 0 1.875 0 1.875l-9.377 1.875c0-1.875 0-1.875 1.877-1.875v0zM286.991 395.386c0-1.875 0-1.875 0 0 1.875-1.875 3.752-1.875 3.752 0s0 1.875-1.875 1.875-1.877 0.002-1.877-1.875zM296.368 215.348c-1.875 0-1.875 0-3.752 0s-1.875 0-3.752 1.875c0 0-1.875 1.875-1.875 3.752h16.879c1.875-1.875 3.752-3.752 5.627-3.752s5.627-1.875 9.377-1.875 5.627-1.875 7.5-1.875 3.752-1.875 3.752-5.627h-18.756c0 0 0 0 0 1.875s0 0-1.875 0v0c0 0 0 0-1.875 0l-1.875-1.875c-1.875 0-3.752 0-3.752 1.875-1.875 1.875-1.875 3.752 0 5.627-3.752 0-3.752 0-5.627 0h0.005zM313.246 346.627c0-1.875 0-1.875 1.875-1.875s1.875 0 1.875 1.875 0 1.875-3.75 0c0 1.875 0 1.875 0 0zM316.996 344.752c0 0 1.875-1.875 0 0 1.875-1.875 3.752-1.875 3.752 0s0 1.875-1.875 1.875c-0.002 0-1.877 0-1.877-1.875zM318.871 434.771c0-1.875 1.877-1.875 0 0 1.875-1.875 3.752-1.875 3.752 0s0 1.875-1.875 1.875c-1.877 0.002-1.877 0.002-1.877-1.875zM326.373 438.521c0-1.875 1.877-1.875 0 0 1.875-1.875 3.752-1.875 3.752 0s0 1.875-1.875 1.875c-1.877 0-1.877 0-1.877-1.875zM326.373 327.873c0-1.875 0-1.875 1.875-1.875s1.875 0 1.875 1.875c0.002 1.877 0.002 1.877-3.75 0 1.877 1.877 0 1.877 0 0zM333.875 442.273l1.875 1.875h-1.875v-1.875zM429.522 365.381c0 0 1.875 1.875 3.752 1.875 1.875 0 3.752 0 3.752-1.875 1.875 0 1.875-1.875 3.752-1.875s3.752 0 3.752 1.875c0 1.875 1.875 1.875 3.752 1.875 1.875 0 3.752-1.875 3.752-3.752 0-1.875 1.875-3.752 1.875-5.627s-1.875-3.752-3.752-3.752c-1.875 0-3.752-1.875-5.627-1.875h-3.752c-1.875 0-3.752 0-3.752 0-1.875 0-1.875 0-3.752 0l-1.875 1.875c0 1.875-1.875 1.875-1.875 5.627s-0.002 5.63-0.002 5.63v0zM513.914 142.207v0c-1.875 1.875-1.875 3.752-1.875 5.627s-1.875 1.875-1.875 3.752c0 1.875-1.875 1.875-1.875 3.752-1.875 3.752-3.752 5.627-5.627 7.5-1.875 1.875-3.752 3.752-5.627 3.752s-3.752 1.875-7.5 1.875c-1.875 0-5.627 0-7.502 0-3.752 0-7.502 0-11.254 1.875s-7.5 1.875-13.127 3.752c-5.627 3.752-11.254 7.5-16.879 13.127-3.752 5.627-7.502 11.252-7.502 18.756 0 7.5 0 13.127 1.875 15.004s1.875 5.627 3.752 5.627c1.875 1.875 3.752 1.875 5.627 3.752 1.875 1.875 3.752 3.752 5.627 7.5 0 0 0 0 0 1.875v5.625c0 1.875 1.875 1.875 3.752 3.752 1.875 1.875 3.752 3.752 3.752 5.627s3.752 3.752 3.752 5.627c0 1.875 1.875 3.752 1.875 5.627 0 0 0 1.875-1.875 1.875 0 1.875-1.875 1.875-1.875 3.752s-1.875 1.875-1.875 3.752c0 1.875-1.875 1.875-1.875 1.875v0c0 3.752 0 7.502 1.875 9.377s1.875 1.875 3.752 3.752c1.875 0 3.752 0 5.627 0s3.752 0 5.627 0 3.752 0 3.752 1.875 1.875 3.752 1.875 5.627c0 0 0 0 0 1.875s0 1.875-1.875 1.875c-1.875 3.752-3.752 7.502-3.752 11.252 0 5.627-1.875 9.377-1.875 13.127 0-1.875 0-3.752-1.875-5.627s-1.875-1.875-3.752-3.752c-1.875 0-3.752-1.875-3.752-1.875-1.875 0-3.752 0-5.627 0 0 3.752 0 5.627 0 5.627 0 1.875 1.875 1.875 1.875 3.752 1.875 0 1.875 1.875 3.752 1.875 1.875 0 1.875 1.875 3.752 1.875 0 0 1.875 1.875 1.875 3.752s0 1.875 0 3.752 0 1.875 1.875 3.752c0 1.875 1.875 1.875 3.752 1.875 0 0 1.875 0 3.752-1.875 1.875-1.875 3.752-3.752 3.752-5.627 1.875-1.875 1.875-3.752 3.752-7.502 1.875-1.875 1.875-3.752 1.875-3.752 0-5.627-3.752-7.502-9.377-7.502v0c0-1.875 0-1.875 1.875-1.875 0 0 1.875 0 3.752 0 1.875 0 3.752 0 5.627 1.875s3.752 1.875 5.627 3.752c1.875 1.875 3.752 3.752 3.752 3.752s3.752 1.875 3.752 3.752c1.875 0 1.875 1.875 3.752 1.875s1.875 0 1.875 1.875c0 1.875 1.875 1.875 1.875 1.875s0 1.875 0 3.752v0c-1.875 1.875-1.875 3.752-3.752 3.752s-1.875 1.875-1.875 3.752-1.875 3.752-1.875 3.752c0 1.875 0 3.752 0 5.627 0 0 0 1.875 0 3.752 0 0 0 1.875 1.875 1.875 0 1.875 1.875 1.875 1.875 3.752 0 1.875 1.875 1.875 1.875 3.752l1.875 1.875c1.875 0 3.752 0 5.627 0 1.875 1.875 3.752 3.752 3.752 5.627 1.875 1.875 1.875 3.752 3.752 7.5 1.875 1.875 1.875 3.752 1.875 3.752 1.875 1.875 3.752 3.752 5.627 5.627s5.627 1.875 7.5 3.752c1.875 0 5.627 1.875 7.502 1.875s5.627 0 7.5 0c1.875 0 5.627 0 9.377 0 3.752 0 7.5 0 11.252-1.875 3.752 0 7.5-1.875 9.377-3.752 3.752-1.875 3.752-3.752 3.752-7.5 0-1.875 0-3.752-1.875-3.752s-3.752-1.875-5.627-1.875c0-1.875 1.875-1.875 1.875-1.875v0c3.752 0 7.5 1.875 9.377 3.752 3.752 1.875 3.752 5.627 5.627 9.377 0 0 0 0 1.875 0h1.875c1.875 0 1.875 0 3.752-1.875 1.875 0 1.875-1.875 3.752-1.875v0l3.752 1.875c1.875 0 1.875 0 5.627 1.875 1.875 0 3.752 0 3.752 0h1.875c0 0 1.875 0 3.752 0s1.875 0 3.752 0 1.875 0 1.875 0c1.875 0 1.875-1.875 1.875-1.875s0 1.875 1.875 1.875c1.875 0 1.875 1.875 1.875 3.752 0 1.875 1.875 1.875 1.875 1.875s1.875 0 1.875 1.875v0h1.875c0 0 1.875-1.875 3.752-1.875 1.875 0 1.875-1.875 3.752-1.875s1.875 0 1.875 0 3.752 1.875 3.752 3.752 1.875 1.875 1.875 3.752c0 1.875 1.875 1.875 1.875 3.752 1.875 0 3.752 1.875 5.627 1.875s3.752 0 3.752 0 1.875-1.875 3.752-1.875 1.875-1.875 3.752-1.875 1.875-1.875 3.752-1.875c0 0 1.875 0 3.752 1.875 1.875 0 1.875 1.875 3.752 1.875 0 0 0 0 1.875 0h3.75c0 0 1.875 0 1.875-1.875 0 3.752 1.875 7.502 5.627 9.377 1.875 1.875 5.627 3.752 9.377 5.627 3.752 1.875 7.502 1.875 11.252 1.875 3.752 0 7.5 1.875 11.252 1.875s7.502 1.875 11.252 3.752c3.752 1.875 5.627 3.752 7.5 7.502v0 0l-3.774-1.899c0 0 0 0-1.875 0 0 0 0 0-1.875 1.875s-1.875 1.875-3.752 3.752c-1.875 1.875-1.875 1.875-3.752 3.752s-1.875 1.875-1.875 1.875v0c0 0 0 0 1.875 1.875s1.875 0 1.875 0h-9.377c0 1.875 1.875 3.752 3.752 3.752s3.752 1.875 5.627 1.875c1.875 0 3.752-1.875 5.627-3.752 1.875-1.875 3.752-3.752 5.627-7.5 1.875-1.875 3.752-5.627 5.627-7.5s3.752-3.752 3.752-3.752l16.879-5.627c1.875-1.875 3.752-1.875 3.752-3.752s0-3.752 1.875-5.627c0-1.875 1.875-1.875 3.752-1.875 1.875 0 3.752-1.875 5.627-1.875s3.752 0 5.627-1.875c1.875 0 3.752 0 3.752 0s1.875 0 3.752 0c1.875 0 3.752 0 5.627 0s3.752 0 5.627 0 3.752 0 3.752 0 0 0 1.875 0c0 0 0 0 0-1.875 0 0 1.875-1.875 3.752-3.752 1.875-1.875 1.875-3.752 3.752-3.752h1.875c3.752 0 9.377 0 15.004 1.875s9.377 1.875 15.004 1.875 9.377 0 13.127-1.875 7.502-1.875 11.252-3.752c3.752-1.875 7.5-3.752 11.252-3.752s7.5-1.875 13.127-3.752c1.875 0 5.627 0 9.377-1.875 3.752 0 7.5 0 9.377-1.875 3.752 0 7.502 0 9.377-1.875 3.752 0 5.627 0 9.377 0 1.875-1.875 3.752-3.752 7.5-3.752s7.5-1.875 9.377-1.875c3.752-1.875 5.627-1.875 9.377-3.752 1.875-1.875 3.752-3.752 3.752-7.5 0 0 0-1.875-1.875-1.875 0-1.875-1.875-1.875-3.752-3.752-1.875-1.875-1.875-1.875-3.752-3.752-1.875 0-1.875-1.875-1.875-1.875-1.875 0-3.752 0-5.627 1.875s-3.752 1.875-5.627 1.875-3.752 0-5.627-1.875-1.875-11.254-3.752-15.004c-1.875-3.752-3.752-3.752-5.627-5.627s-3.752-3.752-5.627-3.752c0 0-1.875 0-3.752 0-1.875 0-3.752 0-5.627-1.875-1.875 0-3.752 0-5.627-1.875-1.875 0-1.875 0-3.752 0-1.875 0-3.752-1.875-3.752-1.875 0-1.875-1.875-3.752-1.875-3.752 0-1.875 0-3.752-1.875-5.627s-1.875-3.752-1.875-5.627c0 0-1.875-1.875-1.875-3.752-1.875-1.875-1.875-1.875-3.752-3.752-1.875-1.875-1.875-1.875-3.752-1.875l-1.875-1.875h-3.75c0 1.875 0 3.752 0 3.752 0 1.875 0 1.875 0 3.752 0 1.875 0 1.875 0 3.752 0 1.875 0 1.875 0 1.875s0 1.875 0 3.752c0 1.875 0 1.875 0 3.752 0 1.875 0 1.875 1.875 3.752s0 1.875 1.875 3.752c1.875 1.875 0 1.875 0 3.752-1.875 0-3.752 0-5.627 0s-1.875 0-3.752 0c-1.875 0-1.875 0-3.752-1.875-1.875 0-1.875-1.875-3.752-3.752h-18.756l-9.377-9.377c0 0 0-1.875 1.875-1.875 0 0 1.875 0 3.752 0 1.875 0 1.875 0 3.752 0 1.875 0 1.875 0 1.875 0 0-3.752 0-5.627 1.875-7.502 0-1.875 1.875-3.752 1.875-7.5 0-5.627 0-9.377-1.875-13.129s-3.752-7.502-5.627-11.254c3.752-1.875 3.752-5.627 5.627-7.502 0-1.875 1.875-5.627 1.875-7.5 0 0 0-1.875 0-3.752s0-1.875 0-1.875l-1.875-1.875c0 0-9.377-5.627-11.252-5.627-1.875-1.875-1.875-1.875-3.752-3.752-1.875-1.875-1.875-1.875-1.875-1.875v-1.875c0 0 0-1.875-1.875-1.875v0c-1.875 0-3.752 0-3.752 1.875s-1.875 3.752-1.875 5.627 0 3.752 1.875 5.627c1.875 1.875 1.875 1.875 3.752 3.752 1.875 1.875 3.752 1.875 3.752 3.752 0 1.875 1.875 3.752 1.875 5.627s0 3.752 0 3.752c0 1.875 0 3.752-1.875 5.627s-1.875 3.752-1.875 5.627c0 1.875 0 3.752 0 5.627v1.875l1.875 1.875c0 0 1.875 1.875 1.875 3.752s0 1.875 0 3.752c0 0 0 0 0 1.875v1.875c-1.875-3.752-3.752-5.627-5.627-9.377s-3.752-7.502-7.502-9.377l-1.875-1.875v-5.627c-3.752-1.875-5.627-3.752-7.5-5.627-1.875-1.875-1.875-5.627-1.875-7.5 0-1.875 0-3.752-1.875-5.627 0-1.875-1.875-1.875-5.627-1.875-1.875 0-3.752 0-3.752 1.875s-1.875 1.875-1.875 3.752c0 1.875 0 3.752-1.875 3.752s-1.875 1.875-3.752 1.875v0c0 0-1.875 0-3.752-1.875-1.875 0-1.875 0-1.875 0v0-1.875c0 0 0 0 1.875 0 0 0 0 0 1.875 0s0 0 0-1.875c0-1.875 0-3.752-1.875-3.752s-1.875-1.875-1.875-3.752 0-3.752 1.875-5.627c0-1.875 1.875-3.752 1.875-5.627 0-3.752-1.875-7.5-3.752-11.252-1.875-1.875-5.627-5.627-7.502-7.5-3.752-1.875-7.5-3.752-9.377-3.752-3.752-1.875-7.5-1.875-9.377-3.752 0 0 0 0-1.875-1.875 0-1.875 0-1.875 0-1.875l-1.875-1.875h-1.875v7.5h-3.75c0-1.875-1.875-1.875-1.875-3.752 0 0 0-1.875-1.875-1.875v-1.875l9.377-11.252c0 0 0-1.875 0-3.752s-1.875-3.752-3.752-5.627-3.752-3.752-3.752-5.627c-3.752-5.627-3.752-7.5-3.752-7.5v0 0c-1.875 1.875-1.875 1.875-3.752 3.752 0 1.875-1.875 1.875-1.875 1.875l-1.875 1.875c0 0-1.875 1.875-3.752 3.752v-5.627c0 0 1.875-1.875 3.752-3.752s1.875-3.752 3.752-5.627c1.875-1.875 1.875-3.752 3.752-5.627 0-1.875 1.875-3.752 1.875-5.627v0l-1.875-1.875c0-3.752 1.875-5.627 3.752-7.5s3.752-3.752 7.5-3.752c3.752-1.875 5.627-1.875 9.377-3.752 1.875-1.875 5.627-1.875 5.627-5.627 0 0-1.875 0-3.752 0-1.875 0-3.752 0-3.752 0-3.752 0-9.377 1.875-13.127 3.752-3.75 1.875-9.377 5.627-13.127 7.5s-7.5 7.502-9.377 11.252c-1.877 3.75-3.752 9.377-3.752 13.127 1.875 0 3.752 0 3.752-1.875 0 0 1.875-1.875 3.752-1.875h1.875c0 1.875-1.875 5.627-1.875 11.252-1.875 5.627-3.752 9.377-5.627 15.004s-5.627 9.377-7.502 13.127c-3.752 3.752-5.627 5.627-9.377 5.627-1.875 0-3.752 0-3.752 0l-5.625-5.625c0 0-1.875 0-3.752 0s-1.875 0-3.752 0c-1.875-1.875-3.752-3.752-5.627-5.627s-1.875-5.627-3.752-7.5c-1.875-1.875-1.875-5.627-3.752-7.5-1.875-1.875-3.752-3.752-5.627-3.752 0 0 0 0-1.875 0v0 1.875c0 0 0 1.875-1.875 3.752s0 1.875-1.875 3.752c-1.875 1.875 0 1.875 0 1.875s0 0 0 1.875c0 0 0 1.875-1.875 1.875l-1.875 1.875c0 0 0 0 0 1.875 0 0 0 1.875 0 3.752s0 3.752 0 5.627 0 3.752 0 5.627c0 1.875 0 1.875 0 3.752 0 0 0 1.875-1.875 3.752 0 1.875-1.875 1.875-1.875 3.752s-1.875 1.875-1.875 3.752l-1.875 1.875c0 0 0 0-1.875 1.875v0h-22.504c0 0 0-1.875-1.875-1.875s-1.875 0-3.752 0-1.875 0-3.752 0-1.875 0-1.875 0 0 0 0-1.875v-1.875l3.75-3.75c0-1.875 0-3.752-3.752-7.5-3.752-3.75-7.5-5.627-11.252-9.377-3.752-3.752-9.377-5.627-13.127-7.5-3.752-1.875-7.5-3.752-9.377-3.752h15.004c0-5.627-1.875-11.252-3.752-15.004-1.875-3.752-7.5-7.502-11.252-11.252-3.752-3.752-7.502-7.502-11.252-11.252s-3.752-7.502-3.752-11.252c0-3.752 0-5.627 1.875-9.377 1.875-1.875 1.875-5.627 1.875-9.377 0-3.752 0-5.627-1.875-7.5-1.875-1.875-3.752-3.752-5.627-5.627s-3.752-1.875-5.627-3.752c-1.875-1.875-3.752-1.875-3.752-3.752 0 0 0 0 0-1.875s0-1.875 0-1.875v-3.75c0-1.875 0-1.875-1.875-3.752 0-1.875-1.875-1.875-1.875-3.752s-1.875-1.875-1.875-3.752c0-1.875-1.875-1.875-1.875-3.752-1.875-3.752-3.752-5.627-3.752-7.5s-3.752-1.875-3.752-3.752c-1.875 0-1.875-1.875-3.752-1.875s-1.875-1.875-3.752-5.627h-9.377c-5.627 0-9.377 0-11.252 1.875-1.872 1.875-5.627 3.752-5.627 5.627-1.875 1.875-1.875 5.627-1.875 7.5 0 3.752 0 5.627-1.875 9.377 0 3.752 0 5.627-1.875 9.377 0 3.752-1.875 5.627-3.752 9.377v31.883l0.012-0.020zM581.43 211.598c1.875-3.752 3.752-5.627 5.627-9.377 1.875-3.752 3.752-5.627 7.502-7.5s3.752-3.752 5.627-5.627v1.875c0 3.752 0 5.627-1.875 9.377-1.875 3.752-3.752 5.627-5.627 7.5-1.875 1.875-5.627 5.627-7.5 7.5-1.875 1.875-3.752 5.627-5.627 7.502v-3.752c-0.002-1.872-0.002-5.625 1.872-7.497v0zM596.431 100.947c0 0 0 1.875 0 3.752s0 3.752 1.875 5.627c0 1.875 0 3.752 1.875 5.627s0 1.875 0 3.752c1.875-1.875 3.752-1.875 3.752-1.875s1.875 0 1.875 1.875c0 0 0 1.875 1.875 1.875l1.875 1.875c1.875 0 3.752 0 3.752-1.875s0-1.875 0-3.752 0-3.752 0-7.5-1.875-5.627-1.875-9.377-1.875-5.627-3.752-9.377c-1.875-1.875-3.752-3.752-5.627-3.752s-1.875 0-1.875 1.875-1.875 1.875-1.875 3.752c0 1.875 0 1.875 0 3.752-1.875 1.872-1.875 1.872-1.875 3.745v0 0 0zM632.064 406.638c1.875 3.752 5.627 5.627 9.377 7.5 3.752 1.872 7.5 3.752 13.127 3.752s9.377 1.875 13.127 1.875c0-1.875-1.875-3.752-3.752-5.627-1.875-1.875-5.627-1.875-9.377-3.752-3.752-1.875-5.627-1.875-9.377-3.752-3.752-1.875-5.627-3.752-5.627-7.502 0-1.875 0-3.752 0-3.752 0-1.875 0-1.875 0-3.752l-1.875-1.875c0 0-1.875 0-3.752 0-1.875 0-3.752 0-3.752 0v1.88c-1.875 7.502 0 11.254 1.875 15.002l0.007 0.005zM744.587 159.086c0-1.875 0-1.875 0 0 1.875-1.875 3.752-1.875 3.752 0s0 1.875-1.875 1.875c-1.877 0-1.877 0-1.877-1.875v0zM746.467 427.269c0-1.875 0-1.875 0 0 1.875-1.875 3.752-1.875 3.752 0s0 1.875-1.875 1.875c-1.877 0.002-1.877-1.875-1.877-1.875v0zM746.467 157.211c0-1.875 0-1.875 1.875-1.875s1.875 0 1.875 1.875c-1.875 1.875-1.875 1.875-3.75 0 0 1.875 0 1.875 0 0v0zM767.093 155.336c1.875 1.875 3.752 3.752 7.5 3.752 1.875 1.875 5.627 3.752 7.5 3.752 1.875 1.875 3.752 1.875 3.752 1.875 1.875 0 1.875 0 1.875-1.875s0-1.875 0-3.752c0-3.752-1.875-7.5-3.752-9.377-1.875-1.877-3.752-7.5-5.627-9.377h-3.752c-3.752 0-7.5 1.875-9.377 3.752-1.877 1.875-3.752 5.627-3.752 9.377 3.752 0 3.752 0 5.627 1.875h0.007zM830.857 50.313c-1.875 0-1.875 1.875-3.752 3.752-1.875 1.875-3.752 1.875-5.627 3.752-1.875 1.875-3.752 1.875-5.627 1.875 0 0-1.875 0-3.752 0-1.875 0-3.752 0-3.752 0s-1.875-1.875-3.752-1.875c-1.875 0-3.752-1.875-7.502-1.875-1.875 0-5.627-1.875-7.5-1.875s-3.752 0-5.627 0h-1.875c0 3.752 0 5.627-1.875 9.377-1.875 1.875-1.875 5.627-3.752 7.5-1.875 1.872-1.875 5.627-3.752 7.5-1.875 1.875-1.875 5.627-1.875 9.377 0 1.875 0 3.752 0 3.752 0 1.875 0 3.752 1.875 3.752 3.752 0 7.5 1.875 11.252 3.752s7.5 3.752 11.252 7.5c3.752 1.875 7.5 3.752 9.377 5.627s3.752 1.875 5.627 1.875v0c0 0 0 0 1.875 0 0 0 0 0 0-1.875l5.627 7.5h16.879c1.875 0 1.875 0 1.875-1.875s0-1.875 0-3.752 0-1.875 0-3.752 0-1.875 1.875-1.875c0 5.627 3.752 11.252 5.627 15.004v0 0c0 0 1.875-1.875 3.752-5.627 1.875-3.752 3.752-7.5 3.752-11.252 1.875-3.752 3.752-7.5 5.627-9.377s3.752-3.752 5.627-1.875c3.752-3.752 5.627-7.5 7.5-11.252s1.875-7.5 1.875-13.127v-3.752c0-1.875 0-1.875 0-3.752s0-1.875-1.875-3.752c0-1.875-1.875-3.752-3.752-7.5-1.875-3.75-3.752-5.627-3.752-7.502s-1.875-3.752-1.875-3.752h-20.629l-9.377 9.377c1.875 0 1.875 0 0 0h0.007zM800.851 202.221c1.875 0 1.875-1.875 3.752-1.875 0-1.875 0-1.875 0-3.752s0-3.752 0-3.752 0-3.752 1.875-3.752c0-1.875 1.875-3.752 3.752-3.752 0 0 0 0 0-1.875 0 0 0 0-1.875 0v0c-1.875 0-5.627 0-7.502 1.875s-3.752 3.752-3.752 5.627c0 1.875-1.875 5.627-1.875 7.5s0 5.627 0 7.502c1.872-3.745 3.75-3.745 5.625-3.745v0zM795.226 153.459l1.875 1.875c1.875 0 1.875 1.875 3.752 1.875 1.875 0 1.875 0 3.752 0h1.875c0 0 1.875 0 1.875-1.875-1.875 0-1.875-1.875-1.875-3.752s0-3.752-1.875-3.752c0-1.875 0-1.875-1.875-3.752-1.875-1.875-1.875-1.875-1.875 0 0 0 0 0-1.875 0s-1.875 1.875-1.875 1.875l-3.75 3.75c-0.005 1.882-0.005 1.882 1.87 3.757v0zM800.851 174.090c0 0 1.875 1.875 3.752 1.875v0c3.752 0 5.627-1.875 5.627-5.627 0-1.875 0-1.875 0-3.752s-1.875-1.875-3.752-1.875c0 0-1.875 0-1.875 1.875s-1.875 1.875-1.875 1.875 0 0-1.875 0-1.875-1.875-1.875-1.875h1.875c-1.875 0-1.875 1.875-1.875 1.875v1.875l1.872 3.755zM825.232 147.832c1.875 0 3.752-1.875 5.627-1.875 1.875-1.875 3.752-1.875 5.627-1.875h1.875c0 0 1.875 0 1.875 1.875 1.875 0 1.875 0 1.875 0 1.875 0 3.752 0 7.5-1.875 3.75-1.875 5.627-3.752 9.377-5.627s5.627-3.752 7.502-7.5c1.875-1.875 3.752-3.752 5.627-7.502 0-1.875-1.875-1.875-1.875-1.875-1.875 0-1.875 0-1.875 0-3.752 0-7.5 0-11.252 1.875s-9.377 1.875-13.127 3.752c-3.75 1.875-11.252 5.627-15.004 9.377-1.875 1.875-3.752 5.625-3.752 11.249 0-1.875 0-1.875 0 0v0zM853.363 282.863v0c-1.875 0-1.875 0-1.875 0v0c-1.877-1.877 0-1.877 1.875 0 0-1.877 0-1.877 0 0 0-1.877 0-1.877 0 0zM855.237 35.309c1.875 0 3.752 0 5.627 0s3.752 0 3.752-1.875c1.875 0 1.875-1.875 1.875-3.752s0-3.752-1.875-5.627c-1.875-1.875-3.752-3.752-5.627-3.752s-1.875 0-3.752 1.875c-1.875 1.875-1.875 1.875-1.875 3.752s0 3.752-1.875 3.752c0 1.875 0 3.752 0 3.752 0 1.875 1.875 1.875 3.75 1.875v0zM920.878 40.936c0 1.875-1.875 3.752-1.875 5.627s0 3.752-1.875 7.5c0 1.875 0 3.752 0 5.627s3.752 0 3.752-1.875c0-1.875 1.875-1.875 3.752-3.752 1.875-1.875 1.875-1.875 1.875-3.752 0-1.875 1.875-3.752 3.752-3.752 0 0 1.875 0 3.752 0 1.875 0 1.875 0 3.752 0v0c0-1.875-1.875-3.752-3.752-7.5-1.875-3.75-5.627-7.502-9.377-11.252-3.752-3.752-7.5-7.5-11.252-9.377s-5.627-3.752-9.377-3.752c0 1.875 0 3.752 1.875 5.627 1.875 3.752 3.752 5.627 5.627 7.5 1.875 1.875 3.752 5.627 5.627 7.5s3.752 1.875 5.627 0c-0.007 1.88-1.882 3.755-1.885 5.632v0z" />
<glyph unicode="&#xe612;" d="M343.040 272c0 97.28 75.568 176 168.96 176s168.96-78.72 168.96-176c0-97.28-75.568-176-168.96-176s-168.96 78.72-168.96 176zM128 256c0 0 149.61-224 385.859-224 236.221 0 382.141 224 382.141 224s-145.92 256-382.141 256c-234.403 0-385.859-256-385.859-256zM402.33 272c0-63.094 49.101-114.237 109.67-114.237s109.67 51.142 109.67 114.237c0 14-2.474 27.434-6.893 39.821-8.243-14.093-23.072-23.501-40.109-23.501-26.010 0-47.002 21.869-47.002 48.96 0 17.75 9.037 33.194 22.56 41.779-11.894 4.608-24.79 7.178-38.227 7.178-60.57 0-109.67-51.142-109.67-114.237z" />
<glyph unicode="&#xe613;" d="M535.165 301.642c0 23.955 19.821 43.373 44.272 43.373 24.454 0 44.275-19.418 44.275-43.373 0-23.958-19.821-43.376-44.275-43.376-24.451 0-44.272 19.418-44.272 43.376zM343.040 272c0 97.28 75.568 176 168.96 176s168.96-78.72 168.96-176c0-97.28-75.568-176-168.96-176s-168.96 78.72-168.96 176zM128 256c0 0 149.61-224 385.859-224 236.218 0 382.141 224 382.141 224s-145.923 256-382.141 256c-234.406 0-385.859-256-385.859-256z" />
<glyph unicode="&#xe614;" d="M605.445 562.954h264.955v-661.699zM418.765 562.954h-265.165v-661.699zM512.102 319.109l168.847-417.818h-110.648l-56.837 152.832h-112.64z" />
<glyph unicode="&#xe615;" d="M619.612 501.801c-62.008 0-114.284-18.78-159.334-57.288l50.191-34.708c26.373 19.584 57.364 35.062 108.744 35.062 54.528 0 104.545-21.437 140.774-60.549 33.469-36.101 52.649-84.618 52.649-133.002 0-47.887-18.929-96.026-51.896-132.127-36.229-39.613-86.497-61.425-141.527-61.425-24.069 0-85.745 5.514-137.016 56.914l-113.449 113.449c-3.261 3.261-11.628 8.412-18.017 9.713-5.949 1.208-12.099 3.456-22.671-7.117-12.201-12.211-11.172-30.853-5.862-36.163l120.243-120.243c47.38-47.38 110.285-73.39 177.178-73.39 71.137 0 136.033 27.74 182.615 78.172 43.131 46.582 67.82 109.358 67.82 172.401-0.005 123.023-93.701 250.301-250.44 250.301zM585.6 265.231c-1.777 1.649-61.399 60.8-91.725 91.049-36.726 36.751-95.549 53.202-137.574 53.202-79.698 0-128.276-37.448-154.977-68.849-31.698-37.35-50.627-88.351-50.627-136.402 0-51.502 20.7-102.948 56.801-141.199 38.349-40.75 91.776-60.631 149.299-60.631l86.4-0.799-59.904 56.878-28.37 0.748c-80.502 0-146.002 65.198-146.002 145.352 0 90.148 75.802 146.002 146.002 146.002 34.125 0 75.177-15.299 95.452-35.599 7.301-7.301 59.049-58.752 79.227-78.802l8.023-7.951c2.499-2.499 9.149-9.149 23.951-9.702h0.927c4.127 0 14.674 1.050 23.199 10.752 5.002 4.951 7.624 10.952 7.649 17.398 0 8.003-3.953 14.756-7.752 18.555zM870.292 499.523c-65.879 65.884-153.641 102.164-247.112 102.164-119.839 0-201.17-58.993-239.283-94.536-9.969 1.004-19.983 1.51-29.932 1.51-80.84 0-156.877-31.514-214.098-88.74-118.241-118.236-118.246-310.748-0.015-429.133 58.214-58.209 134.246-90.26 214.113-90.26h269.215c93.097 0 185.677 38.758 247.649 103.675 136.033 136.325 136.023 358.758-0.538 495.319zM623.176-71.501h-269.199c-72.448 0-141.476 29.148-194.35 82.048-107.351 107.5-107.351 282.25 0 389.601 51.948 51.901 120.975 80.548 194.35 80.548 12.774 0 25.324-0.901 37.274-2.55l2.55-0.399 1.802 1.848c28.273 28.252 107.023 94.1 227.574 94.1 86.026 0 166.774-33.398 227.348-93.952 125.727-125.701 125.727-330.348-0.077-456.351-56.648-59.392-141.624-94.894-227.272-94.894z" />
<glyph unicode="&#xe616;" d="M385.828-80.456c0-41.236-30.563-74.665-68.265-74.665s-68.265 33.429-68.265 74.665c0 41.236 30.563 74.665 68.265 74.665s68.265-33.429 68.265-74.665zM778.358-80.456c0-41.236-30.563-74.665-68.265-74.665s-68.265 33.429-68.265 74.665c0 41.236 30.563 74.665 68.265 74.665s68.265-33.429 68.265-74.665zM800.916 102.4c-4.936 0-482.744 0-482.744 0l19.512 62.935h429.292c16.271 0 30.28 11.484 33.469 27.438l119.455 324.265c4.224 21.12-11.93 40.827-33.469 40.827h-3.231v0.783h-666.711l-32.998 89.574c-2.488 16.732-16.85 29.112-33.761 29.112h-65.418c-18.852 0-34.135-15.283-34.135-34.135s15.283-34.13 34.135-34.13h35.983l151.752-407.91-33.116-129.946c-5.386-21.545 10.911-49.27 33.116-49.27 0 0 518.851 0 529.065 0 18.852 0 34.135 22.139 34.135 40.991s-15.483 39.465-34.33 39.465zM242.908 486.948h590.628l-94.541-253.348h-402.755l-93.332 253.348z" />
<glyph unicode="&#xe617;" d="M512 204.8v0c-28.278 0-51.2 22.922-51.2 51.2v358.4c0 28.278 22.922 51.2 51.2 51.2v0c28.278 0 51.2-22.922 51.2-51.2v-358.4c0-28.278-22.922-51.2-51.2-51.2zM688.712 507.023l-42.276-84.557c48.753-39.455 80.604-99.011 80.604-166.467 0-118.574-96.461-215.040-215.040-215.040s-215.040 96.461-215.040 215.040c0 67.456 31.852 127.012 80.599 166.467l-42.271 84.557c-78.853-55.603-130.488-147.205-130.488-251.023 0-169.661 137.539-307.2 307.2-307.2s307.2 137.539 307.2 307.2c0 103.818-51.635 195.42-130.488 251.023z" />
<glyph unicode="&#xe618;" d="M531.579 204.8c-54.211 0-39.153 60.237-39.153 60.237 38.369 40.755 69.268 98.534 69.268 165.647 0 107.059-64.635 190.612-150.282 190.612-85.642 0-155.075-86.784-155.075-193.848 0-63.826 26.342-121.068 64.415-156.39 0 0 12.723-66.258-45.553-66.258 0 0-224-55.465-224-230.4v-25.6h716.8v25.6c0 174.935-236.421 230.4-236.421 230.4zM756.797 233.887c-49.526 0-35.773 55.030-35.773 55.030 35.052 37.233 63.288 90.020 63.288 151.337 0.005 97.818-59.049 174.147-137.293 174.147-20.972 0-40.709-6.052-58.619-16.271 30.976-45.645 50.094-103.163 50.094-167.444 0-56.929-16.62-113.085-47.657-163.123 103.613-35.128 238.413-119.465 252.549-267.556h129.413v23.388c0 159.816-216.003 210.493-216.003 210.493z" />
<glyph unicode="&#xe619;" d="M633.979 204.8c-54.211 0-39.153 60.237-39.153 60.237 38.369 40.755 69.268 98.534 69.268 165.647 0 107.059-64.635 190.612-150.282 190.612-85.642 0-155.075-86.784-155.075-193.848 0-63.826 26.342-121.068 64.415-156.39 0 0 12.723-66.258-45.553-66.258 0 0-224-55.465-224-230.4v-25.6h716.8v25.6c0 174.935-236.421 230.4-236.421 230.4z" />
<glyph unicode="&#xe61a;" d="M256 665.6v-819.2h563.2v819.2h-563.2zM716.8-51.2h-358.4v614.4h358.4v-614.4z" />
<glyph unicode="&#xe61b;" d="M0 460.8v-409.6h1024v409.6h-1024zM921.6 153.6h-819.2v204.8h819.2v-204.8z" />
<glyph unicode="&#xe61c;" d="M256 512v-512h512v512h-512zM665.6 102.4h-307.2v307.2h307.2v-307.2z" />
<glyph unicode="&#xe61d;" d="M102.4 512v-512h819.2v512h-819.2zM819.2 102.4h-614.4v307.2h614.4v-307.2z" />
<glyph unicode="&#xe61e;" d="M768 512v128h-640v-640h128v-128h640v640h-128zM256 64h-64v512h512v-64h-448v-448zM832-64h-512v512h288v-288l80 64 80-64v288h64v-512z" />
<glyph unicode="&#xe61f;" d="M828.952 560.762v146.286h-780.19v-780.19h146.286v-146.286h780.19v780.19h-146.286zM195.048-24.38h-97.524v682.667h682.667v-97.524h-585.143v-585.143zM926.476-170.666h-682.667v682.667h365.714v-390.095l109.714 97.524 109.714-97.524v390.095h97.524v-682.667z" />
<glyph unicode="&#xe620;" d="M716.8 460.8v-409.6h-409.6v409.6h409.6zM742.4 563.2h-460.8c-42.414 0-76.8-34.376-76.8-76.8v-460.8c0-42.424 34.386-76.8 76.8-76.8h460.8c42.414 0 76.8 34.376 76.8 76.8v460.8c0 42.424-34.386 76.8-76.8 76.8v0z" />
<glyph unicode="&#xe621;" d="M742.4 563.2h-460.8c-42.414 0-76.8-34.386-76.8-76.8v-460.8c0-42.414 34.386-76.8 76.8-76.8h460.8c42.414 0 76.8 34.386 76.8 76.8v460.8c0 42.414-34.386 76.8-76.8 76.8zM732.826 329.549l-243.2-243.2c-11.126-11.1-25.902-17.249-41.626-17.249s-30.5 6.149-41.626 17.249l-115.2 115.2c-11.126 11.151-17.249 25.948-17.249 41.651s6.124 30.5 17.249 41.651c22.252 22.2 61 22.2 83.251 0l73.574-73.6 201.574 201.6c22.252 22.2 61 22.2 83.251 0 11.126-11.151 17.249-25.948 17.249-41.651s-6.124-30.5-17.249-41.651z" />
<glyph unicode="&#xe622;" d="M742.4 563.2h-460.8c-42.414 0-76.8-34.386-76.8-76.8v-460.8c0-42.414 34.386-76.8 76.8-76.8h460.8c42.414 0 76.8 34.386 76.8 76.8v460.8c0 42.414-34.386 76.8-76.8 76.8zM665.6 204.8h-307.2c-28.278 0-51.2 22.927-51.2 51.2s22.922 51.2 51.2 51.2h307.2c28.278 0 51.2-22.927 51.2-51.2s-22.922-51.2-51.2-51.2z" />
<glyph unicode="&#xe623;" d="M538.255 315.192c0 27.151 22.461 49.157 50.176 49.157s50.176-22.006 50.176-49.157c0-27.151-22.461-49.157-50.176-49.157s-50.176 22.006-50.176 49.157zM320.512 281.6c0 110.249 85.642 199.465 191.488 199.465s191.488-89.216 191.488-199.465-85.642-199.465-191.488-199.465-191.488 89.216-191.488 199.465zM76.8 263.465c0 0 169.559-253.865 437.309-253.865 267.715 0 433.091 253.865 433.091 253.865s-165.381 290.135-433.091 290.135c-265.661 0-437.309-290.135-437.309-290.135z" />
<glyph unicode="&#xe624;" d="M512 460.8c112.927 0 204.8-91.873 204.8-204.8s-91.873-204.8-204.8-204.8-204.8 91.873-204.8 204.8 91.873 204.8 204.8 204.8zM512 563.2c-169.661 0-307.2-137.539-307.2-307.2s137.539-307.2 307.2-307.2 307.2 137.539 307.2 307.2-137.539 307.2-307.2 307.2v0z" />
<glyph unicode="&#xe625;" d="M512 563.2c-169.661 0-307.2-137.539-307.2-307.2s137.539-307.2 307.2-307.2 307.2 137.539 307.2 307.2-137.539 307.2-307.2 307.2v0z" />
<glyph unicode="&#xe626;" d="M310.272 281.6c0 118.057 90.225 213.596 201.728 213.596s201.728-95.539 201.728-213.596-90.225-213.596-201.728-213.596-201.728 95.539-201.728 213.596zM76.8 263.168c0 0 169.559-258.048 437.309-258.048 267.715 0 433.091 258.048 433.091 258.048s-165.376 294.912-433.091 294.912c-265.661 0-437.309-294.912-437.309-294.912zM405.99 281.6c0-60.989 47.462-110.423 106.010-110.423s106.010 49.434 106.010 110.423c0 13.532-2.391 26.516-6.661 38.492-7.967-13.624-22.303-22.717-38.769-22.717-25.139 0-45.435 21.14-45.435 47.324 0 17.157 8.735 32.087 21.806 40.387-11.5 4.454-23.962 6.938-36.951 6.938-58.547 0-106.010-49.434-106.010-110.423z" />
<glyph unicode="&#xe627;" d="M361.283 156.8h299.853c37.427 0 75.756 33.382 94.331 68.342l125.174 266.593-76.954 36.152-124.206-264.658c-2.821-5.258-8.248-8.525-14.203-8.525h-294.226l-171.745 356.495h-111.304v-101.386h67.159l135.721-282.614-33.756-62.065c-19.185-33.633-10.45-98.478 16.154-125.138 14.060-14.060 23.030-30.403 64-30.403 0.968 0 15.468-1.997 16.466-1.966h394.158l5.079 90.112-396.314-0.026c-35.389 0.005 4.613 59.085 4.613 59.085zM394.962-94.5c0-39.138-31.728-70.866-70.866-70.866s-70.866 31.728-70.866 70.866c0 39.138 31.728 70.866 70.866 70.866s70.866-31.728 70.866-70.866zM769.521-94.5c0-39.138-31.728-70.866-70.866-70.866s-70.866 31.728-70.866 70.866c0 39.138 31.728 70.866 70.866 70.866s70.866-31.728 70.866-70.866zM665.6 563.2h-102.4v102.4h-102.4v-102.4h-102.4v-102.4h102.4v-102.4h102.4v102.4h102.4z" />
</font>
</defs>
</svg>
